Skip to main content

Cracker Live at Door County Auditorium on 2012-05-05

by Cracker



01. DCA intro
02. Eurotrash Girl
03. ToTiDo banter
04. Turn On Tune In Drop Out
05. Friends
06. Been Around The World
07. Seven Days
08. Teen Angst
09. banter - Cracker comedy hour
10. St Cajetan
11. Take Me Down To The Infirmary
12. Nostalgia
13. Low
14. Gimme One More Chance
15. Loser
16. One Fine Day
17. Lonesome Johnny Blues
18. Happy Birthday To Me
19. Hold Of Myself
20. I See The Light
21. outtro


Collection Cracker
Band/Artist Cracker
Date May 5, 2012
Venue Door County Auditorium
Location Fish Creek, WI USA

Source Neumann KM140's (ORTF 10th row ctr, FoB) + DPA 4061's (split omnis, 17th row) + Digidesign Venue SBD (3 feeds) > MotU 828 > G3 Pismo > DP3 > SD2 @24/48
Lineage SD2 files > Digital Performer > WAV @24/48 > Audacity (tracking) > xACT > FLAC @24/48
Taped by morst & digitalist0ne
Transferred by morst & digitalist0ne


Notes

SHNTOOL LEN:
length expanded size cdr WAVE problems fmt ratio filename
1:51.904 32228372 B cxx -- ---xx flac 0.5940 Cracker2012-05-05t01.flac
8:32.891 147712718 B cxx -- ---xx flac 0.7264 Cracker2012-05-05t02.flac
1:58.175 34034438 B cxx -- ---xx flac 0.5833 Cracker2012-05-05t03.flac
4:58.034 85833878 B cxx -- ---xx flac 0.7349 Cracker2012-05-05t04.flac
4:14.832 73391702 B cxx -- ---xx flac 0.6798 Cracker2012-05-05t05.flac
5:21.124 92483672 B cxx -- ---xx flac 0.7150 Cracker2012-05-05t06.flac
4:32.021 78342032 B cxx -- ---xx flac 0.7433 Cracker2012-05-05t07.flac
5:25.967 93878480 B cxx -- ---xx flac 0.7208 Cracker2012-05-05t08.flac
2:15.768 39101282 B cxx -- ---xx flac 0.5716 Cracker2012-05-05t09.flac
7:08.121 123298976 B cxx -- ---xx flac 0.6944 Cracker2012-05-05t10.flac
4:10.609 72175370 B cxx -- ---xx flac 0.6805 Cracker2012-05-05t11.flac
5:56.667 102720200 B cxx -- ---xx flac 0.6870 Cracker2012-05-05t12.flac
4:34.030 78920618 B cxx -- ---xx flac 0.7659 Cracker2012-05-05t13.flac
4:28.435 77309264 B cxx -- ---xx flac 0.7306 Cracker2012-05-05t14.flac
6:11.095 106875338 B cxx -- ---xx flac 0.6751 Cracker2012-05-05t15.flac
7:30.360 129703682 B cxx -- ---xx flac 0.7179 Cracker2012-05-05t16.flac
2:51.050 49262444 B cxx -- ---xx flac 0.7115 Cracker2012-05-05t17.flac
5:16.980 91290152 B cxx -- ---xx flac 0.7143 Cracker2012-05-05t18.flac
4:10.131 72037862 B cxx -- ---xx flac 0.6493 Cracker2012-05-05t19.flac
5:48.143 100265234 B cxx -- ---xx flac 0.7401 Cracker2012-05-05t20.flac
1:02.020 17861798 B cxx -- ---xx flac 0.5712 Cracker2012-05-05t21.flac
98:18.356 1698727512 B 0.7021 (21 files)

-~-~-~-~-~-~-~-~-~-~-~-~-~-~-~-~-~-~-~-~-~-~-~-~-~-
The Soundscape Preservation Society (Founded 1991)
http://www.iamtypingwithonefinger.com/SPS.html
-~-~-~-~-~-~-~-~-~-~-~-~-~-~-~-~-~-~-~-~-~-~-~-~-~-

Reviews

Reviewer: Zevonophile - - December 10, 2012
Subject: Magnificent
Whilst some of the sound is a bit too 'middy', and lacking in top end, the version of 'One Fine Dayt' in this set is quite the most magnificent I have heard. Anthemic. And Johnny's playing is just sublime.
When you coming to Australia, guys??????
Reviewer: jackaroe_RI - - August 8, 2012
Subject: Great show!
I for one am truly bummed that Cracker is only playing 4 or 5 songs on this 2012 summer tour- they should be headlining!!
I sure hope I can make it to The Beachcomber and see a whole show.

Any want to go 16bit d/l R8brain and drop it to 16/44 to burn to CD. FAR superior to MP3.
Reviewer: chill-i - - July 20, 2012
Subject: Morst is the Man!!
Thanks brother for a sweeeet recording of a really nice Cracker show!! Excellent song selection and performance, and the banter is certainly classic fun. Now I really need that cooool drink of water.
Reviewer: morst - - May 17, 2012
Subject: 16 bit is like 8-track
Thanks for the review, Jim!

I don't do 16 anymore. If you want less than the best, take the MP3's.
Reviewer: JimBeamA - - May 15, 2012
Subject: First to review
Well this is a fine show. David Lowery is in fine story-telling form. Sound is very good. I wonder if Morst will also upload the 16bit version? But I digress...The show has a strong setlist and is well played...Teen Angst is playing right now. The Cracker Comedy Hour is up next. I can't wait! Now to go find some place to be surly.
DOWNLOAD OPTIONS
In Collection
Cracker
In Collection
Live Music Archive
Uploaded by
morst
on 5/8/2012
Views
1,383
Favorites
3
Reviews
5
PEOPLE ALSO FOUND
Cracker
by Cracker
1,194
0
1
( 1 reviews )
Source: FM > cass > CD > FLAC
Cracker
by Cracker
396
0
1
( 1 reviews )
Source: Neumann KM140's > Shure FP24 > Sony PCM-M10 > WAV @24/48
Cracker
by Cracker
137
0
0
Source: Sony ECM Mic -> Sony HI-MD -> Sonic Stage -> wav
Cracker
by Cracker
330
0
0
Source: SBD > Sony PCM-M10 > WAV @24/48
Cracker
by Cracker
75
0
0
Source: audience DAT
Cracker
by Cracker
160
0
0
Source: Schoeps MK4Vs > Lunatec V3 > Sound Devices 744t
Cracker
by Cracker
183
0
0
Source: SBD + Audience 4-channel post-production matrix mix
Cracker
by Cracker
1,231
0
1
( 1 reviews )
Source: Multichannel SBD+AUD
Cracker
by Cracker
168
0
0
Source: FOB DFC DPA(B&K)4011s->V2->Luminous Synchestra Signature XLRs->AD2K@ 24/48->722
Cracker
by Cracker
201
0
0
Source: internal Mic > Panasonic RX-SR29 Tape Deck > (2) Maxell XLII 90